設為首頁 收藏本站
查看: 3218|回復: 5

[Yandex][君の名は。Fans][RADWIMPS スパークル MV/你的名字。火花 MV/Your name. Sparkle MV][DVDRip][720p][MP4][繁日]

[複製鏈接]
發表於 2016-12-28 16:46:56 | 顯示全部樓層 |閱讀模式
本帖最後由 stevenweng09 於 2016-12-28 05:34 PM 編輯

【預覽圖片】:


【動畫名稱】:RADWIMPS スパークル [original ver.] -Your name. Music Video edition-
【字 幕 組 】:君の名は。Fans
【檔案大小】:189MB 時長6:52
【檔案格式】:AVC-yuv420p AAC .mp4
【存活空間】:Yandex Disk
【存活時間】:永久
【STAFF】
Comix Wave Films
RADWIMPS



自購 RADWIMPS人間開花(初回限定盤)CD+DVD,特典DVD : スパークル (original ver.) -Your name. Music Video edition-

中日歌詞&特效 : t0042380
DVD壓製 : stevenweng09

Video: nnedi3_1280x720p, 24/1.001fps, AVC , YUV 4:2:0
parameter:presetveryslow,me=tesa,subme=11,ref=9,bframes9,me_range=24,crf=17.2,mbtree=0,qcomp 0.7,aq-strength 0.85,psy-rd 0.95:0
pp: anti-aliasing,de-blocking,de-banding,de-ringing,edge enhancement+linedarken,nnedi3_resize

這個Sparkle MV完整版很殘念的只有發售DVD,DVD細節部分只有480p水平且DVD原盤瑕疵很多,會影響觀看..,
從20161123專輯發售那天我就開始處理這DVD了,不過一直對成品不太滿意,所以一直拖到了現在, 但還是有各種地方不夠完善,
線條瑕疵都盡可能地修復了,考量到細節所以去除色塊較為保守,剩下的要挑出來慢慢修了,
之後逐幀修復好也許會發Final版....請持續關注本組~~也請大家多多支持囉~~沒什麼人支持的話...也許就這樣了吧 不再繼續分享新成品了~~
有任何畫面or字幕部分的意見都可以在底下回復

【下載網址】:
遊客,如果您要查看本帖隱藏內容請回復















免責聲明
本人呼籲會員們不要將本站資源用於盈利和/或非法目的。
本人亦不承擔會員將本站資源用於盈利和/或非法目的之任何後果和/或法律責任。
本圖像文件皆從網上搜集轉載,不承擔任何技術及版權問題。
下載鏈接僅供寬帶測試研究用途,請下載後在24小時內刪除,請勿用於商業目的。





本帖子中包含更多資源

您需要 登錄 才可以下載或查看,沒有帳號?立即註冊

x
發表於 2017-1-2 19:40:05 | 顯示全部樓層
尋找了許久才找到 大大的用心 心存感激
發表於 2017-2-28 16:39:08 | 顯示全部樓層
找這個好久了 感謝
發表於 2017-6-17 04:14:24 | 顯示全部樓層
本帖最後由 Rtshaw 於 2017-6-17 04:23 AM 編輯

謝謝!!終於找到資源了QQ
發表於 2017-6-19 06:50:31 | 顯示全部樓層
感謝分享 找這個找很久了
 樓主| 發表於 2017-7-26 22:01:50 | 顯示全部樓層
本帖最後由 stevenweng09 於 2017-7-26 10:05 PM 編輯

2017/07/26更新
BDRip  


Sparkle [original ver.] -Your name. Music Video edition- [BDRip AVC 1920x1080p DTS-HDMA]   
https://mega.nz/#!oB011LAA!ZVE_M ... QZt1u_5Uhoz7zhsAliE
https://pan.baidu.com/s/1bpq4bbL 密碼 : 4j7b     
解壓縮密碼: upload_by_stevenweng09

  1. Complete name: S:\Sparkle [original ver.] -Your name. Music Video edition- [BDRip AVC 1920x1080p DTS-HDMA AAC].mkv
  2. Format : Matroska
  3. Format version : Version 2
  4. File size : 730 MiB
  5. Duration : 6 min 52 s
  6. Overall bit rate : 14.9 Mb/s
  7. Encoded date : UTC 2017-07-25 14:56:46
  8. Writing application : mkvmerge v10.0.0 ('To Drown In You') 64bit
  9. Writing library : libebml v1.3.4 + libmatroska v1.4.5
  10. Video
  11. ID : 1
  12. Format : AVC
  13. Format/Info : Advanced Video Codec
  14. Format profile : High@L4.1
  15. Format settings, CABAC : Yes
  16. Format settings, ReFrames : 4 frames
  17. Codec ID : V_MPEG4/ISO/AVC
  18. Duration : 6 min 52 s
  19. Bit rate : 13.3 Mb/s
  20. Width : 1 920 pixels
  21. Height : 1 080 pixels
  22. Display aspect ratio : 16:9
  23. Frame rate mode : Constant
  24. Frame rate : 23.976 (24000/1001) FPS
  25. Color space : YUV
  26. Chroma subsampling : 4:2:0
  27. Bit depth : 8 bits
  28. Scan type : Progressive
  29. Bits/(Pixel*Frame) : 0.268
  30. Stream size : 654 MiB (90%)
  31. Title : BDRip by Stevenweng09
  32. Writing library : x264 core 148 r2744 b97ae06
  33. Encoding settings : cabac=1 / ref=4 / deblock=1:0:0 / analyse=0x3:0x133 / me=tesa / subme=11 / psy=1 / psy_rd=0.95:0.00 / mixed_ref=1 / me_range=24 / chroma_me=1 / trellis=2 / 8x8dct=1 / cqm=0 / deadzone=21,11 / fast_pskip=0 / chroma_qp_offset=-2 / threads=12 / lookahead_threads=2 / sliced_threads=0 / nr=0 / decimate=0 / interlaced=0 / bluray_compat=0 / constrained_intra=0 / bframes=9 / b_pyramid=2 / b_adapt=2 / b_bias=0 / direct=3 / weightb=1 / open_gop=0 / weightp=2 / keyint=240 / keyint_min=23 / scenecut=40 / intra_refresh=0 / rc=crf / mbtree=0 / crf=15.0 / qcomp=0.70 / qpmin=0 / qpmax=41 / qpstep=4 / ip_ratio=1.40 / pb_ratio=1.30 / aq=1:0.85
  34. Default : Yes
  35. Forced : No
  36. Color range : Limited
  37. Matrix coefficients : BT.709
  38. Audio #1
  39. ID : 2
  40. Format : DTS
  41. Format/Info : Digital Theater Systems
  42. Format profile : MA / Core
  43. Mode : 16
  44. Format settings, Endianness : Big
  45. Codec ID : A_DTS
  46. Duration : 6 min 52 s
  47. Bit rate mode : Variable / Constant
  48. Bit rate : 1 118 kb/s / 768 kb/s
  49. Channel(s) : 2 channels
  50. Channel positions : Front: L R
  51. Sampling rate : 48.0 kHz
  52. Frame rate : 93.750 FPS (512 spf)
  53. Bit depth : 16 bits
  54. Compression mode : Lossless / Lossy
  55. Stream size : 54.9 MiB (8%)
  56. Language : Japanese
  57. Default : Yes
  58. Forced : No
  59. Audio #2
  60. ID : 3
  61. Format : AAC
  62. Format/Info : Advanced Audio Codec
  63. Format profile : LC
  64. Codec ID : A_AAC
  65. Duration : 6 min 52 s
  66. Bit rate : 419 kb/s
  67. Channel(s) : 2 channels
  68. Channel positions : Front: L R
  69. Sampling rate : 48.0 kHz
  70. Frame rate : 46.875 FPS (1024 spf)
  71. Compression mode : Lossy
  72. Delay relative to video : 9 ms
  73. Stream size : 20.6 MiB (3%)
  74. Language : Japanese
  75. Default : No
  76. Forced : No
複製代碼

高級模式
您需要登錄後才可以回帖 登錄 | 立即註冊

本版積分規則



網站訊息

Powered by Discuz! X3.2

© 2001-2013 Comsenz Inc. Templated By TNDR

Archiver|小黑屋| TNDR傲嬌字幕組

GMT+8, 2018-11-18 10:09 PM , Processed in 0.046268 second(s), 7 queries , Apc On.

返回頂部 返回列表